テストリリース 1.0.0 RC 4b

2009/04/03

インストーラ版: CravingExplorer-1-0-0-RC4b.exe
ZIP版: CravingExplorer-1-0-0-RC4b.zip

<< 前のテストリリース版 テストリリース 1.0.0 RC 4a
>> 次のテストリリース版 テストリリース 1.0.0 RC 4c

【更新履歴】

  • Craving Explorer の初回起動時に、保存 / 変換メニューの表示設定ウィザードを表示するようにしました。二回目以降の起動では、Craving Explorer オプション→保存 / 変換メニューより設定変更してください。
  • YouTube の仕様変更により、自動ログインできなくなっていた問題を修正しました。
  • YouTube の自動ログインで、Google アカウントを利用できるようにしました。
  • alneo V series の変換、自動登録に対応しました。(自動登録は音声のみで、Windows Media Player 10 以降がインストールされている必要があります。)
  • YouTube 検索で、評価を表す星マークがリンク切れになっていた問題を修正しました。
  • iriver clix で動画が再生できなかった問題を修正しました。
  • MTP 接続されているデバイスへファイルを転送するときに、メタデータの一部を保存するようにしました。
  • gigabeat V/T と記載していたものを V/T/S に変更しました。
  • 特定のタイミングで動画の保存、変換が行えないことがあった不具合を修正しました。
  • License.rtf を同梱しました。インストーラ版ではインストール時に同意するかどうかの確認を行います。ZIP 版をご利用の場合は、必ず前もって License.rtf をご確認になった上で同意された場合のみご利用ください。
  • Readme.txt の内容が古くなっていたため変更しました。

【更新内容について】

  • YouTube へのログイン方法を変更したため、Google アカウントでも自動ログインできるようになりました。
  • MTP 接続の転送時にメタデータの一部を保存することで、gigabeat V/T/S へ動画を保存したときに、頭の 3 秒程度が再生されなかった問題が解決しています。
  • alneo V series への動画保存は、Windows Media Player の同期機能を利用してください(Explorer で動画を追加しても alneo では再生できません)。尚、alneo V は WMV 形式のみの対応となりますが、ffmpeg で作成された WMV ファイルは Windows Media Player で変換できないため、AVI で保存するようにしています。
  • 動画の保存、変換の時に、特定のタイミングで正しく動作しなかった問題を修正しています。以前 k38 さんに掲示板で指摘頂いた問題の修正になっています。
  • オプションのツリー画面でフリーズする問題は現在調査中です。

【コメント】

質問、不具合報告等は、下のコメントフォームか、直接このページを編集するようにお願いします。

  • お世話になります。特定のタイミングで変換失敗になる件ですが、まだなりますね。
    以下、2つ同時にD&Dした結果、片方が変換失敗になった際の /debug オプションで作成されるログです。(個人情報につながるところは * で消させていただきました)

1つ目(成功:ffmpeg_log_********_avi_2009_0403_1820_23_524.txt)

Convert Action: avi
Command Line: -y -i "*:\*****\download\flv\********.flv" -vcodec msmpeg4v2 -r 30000/1001 -acodec libmp3lame -ac 2 -ar 44100 -ab 128k -sameq "C:\Users\**********\AppData\Roaming\CravingExplorer\temp\20090403092016863.avi"
 
FFmpeg version SVN-r16966, Copyright (c) 2000-2009 Fabrice Bellard, et al.
 configuration: --enable-memalign-hack --enable-postproc --enable-swscale --enable-gpl --enable-small --enable-pthreads --enable-libfaac --enable-libfaad --enable-libgsm --enable-libmp3lame --enable-libnut --enable-libvorbis --enable-libtheora --enable-libx264 --enable-libxvid --enable-avisynth --disable-decoder=aac --disable-ffserver --disable-ffplay --disable-debug --extra-ldflags=-static --extra-cflags=-mtune=generic -mno-sse2
  libavutil     49.14. 0 / 49.14. 0
  libavcodec    52.11. 0 / 52.11. 0
  libavformat   52.25. 0 / 52.25. 0
  libavdevice   52. 1. 0 / 52. 1. 0
  libswscale     0. 6. 1 /  0. 6. 1
  libpostproc   51. 2. 0 / 51. 2. 0
  built on Feb  3 2009 11:58:52, gcc: 4.3.2
 
Seems stream 0 codec frame rate differs from container frame rate: 1000.00 (1000/1) -> 29.97 (30000/1001)
Input #0, flv, from '*:\*****\download\flv\********.flv':
  Duration: 00:10:48.28, start: 0.000000, bitrate: 128 kb/s
    Stream #0.0: Video: vp6f, yuv420p, 512x384, 29.97 tb(r)
    Stream #0.1: Audio: mp3, 44100 Hz, stereo, s16, 128 kb/s
Output #0, avi, to 'C:\Users\**********\AppData\Roaming\CravingExplorer\temp\20090403092016863.avi':
    Stream #0.0: Video: msmpeg4v2, yuv420p, 512x384, q=2-31, 200 kb/s, 29.97 tb(c)
    Stream #0.1: Audio: libmp3lame, 44100 Hz, stereo, s16, 128 kb/s
Stream mapping:
  Stream #0.0 -> #0.0
  Stream #0.1 -> #0.1
Press [q] to stop encoding
~後略~

2つ目(失敗:ffmpeg_log_********_avi_2009_0403_1820_18_673.txt)

Convert Action: avi
Command Line: -y -i "*:\*****\download\flv\********.flv" -vcodec msmpeg4v2 -r 30000/1001 -acodec libmp3lame -ac 2 -ar 44100 -ab 128k -sameq "C:\Users\**********\AppData\Roaming\CravingExplorer\temp\20090403092016863.avi"
 
FFmpeg version SVN-r16966, Copyright (c) 2000-2009 Fabrice Bellard, et al.
 configuration: --enable-memalign-hack --enable-postproc --enable-swscale --enable-gpl --enable-small --enable-pthreads --enable-libfaac --enable-libfaad --enable-libgsm --enable-libmp3lame --enable-libnut --enable-libvorbis --enable-libtheora --enable-libx264 --enable-libxvid --enable-avisynth --disable-decoder=aac --disable-ffserver --disable-ffplay --disable-debug --extra-ldflags=-static --extra-cflags=-mtune=generic -mno-sse2
  libavutil     49.14. 0 / 49.14. 0
  libavcodec    52.11. 0 / 52.11. 0
  libavformat   52.25. 0 / 52.25. 0
  libavdevice   52. 1. 0 / 52. 1. 0
  libswscale     0. 6. 1 /  0. 6. 1
  libpostproc   51. 2. 0 / 51. 2. 0
  built on Feb  3 2009 11:58:52, gcc: 4.3.2
 
Seems stream 0 codec frame rate differs from container frame rate: 1000.00 (1000/1) -> 29.97 (30000/1001)
Input #0, flv, from '*:\*****\download\flv\********.flv':
  Duration: 00:10:48.25, start: 0.000000, bitrate: 128 kb/s
    Stream #0.0: Video: vp6f, yuv420p, 512x384, 29.97 tb(r)
    Stream #0.1: Audio: mp3, 44100 Hz, stereo, s16, 128 kb/s
File 'C:\Users\**********\AppData\Roaming\CravingExplorer\temp\20090403092016863.avi' already exists. Overwrite ? [y/N] Not overwriting - exiting

  -- k38 2009-04-03 (金) 18:24:11

  • >k38 さん ありがとうございます。こちらで確認できました。ローカルで修正したので次のリリースに反映します。 -- tuck@作者 2009-04-04 (土) 08:34:36
  • はてなブックマークを開くと下の方がバグってます -- kai 2009-04-04 (土) 16:59:11
  • いまさらこんな質問で恐縮なのですが、YouTubeにおけるGoogleアカウントでの自動ログインが成功している場合、
    ニコニコ動画のように「YouTube の適当な動画を Craving Explorer で開くと【画面上部に使用しているアカウントの
    ユーザー名が表示】され【その右に "ログアウト" のリンクが表示】されている」という状態になっていればよろしいのでしょうか?
    これが期待されている動作だとすると、自分の環境ではうまく機能していないようです。こちらの環境は XPPro SP3、IE6SP3 で、
    再現手順は以下の通りです。
    1. YouTube で Gmail のアカウントでログインし、YouTube アカウントとリンク
      (アカウントのプロファイルで Gmail のメールアドレスが表示され、「Google アカウント経由でログインしています」と表示されるようにする)
    2. YouTube をログアウト
    3. IE のキャッシュと Cookie をクリア
    4. 一度関連ファイルをすべて削除して Craving Explorer RC4b を新規に入れなおし
    5. Craving Explorer を起動して、設定画面で Google アカウントの情報を入力 (***@gmail.com の *** の部分と gmail のパスワードを指定)
    6. Craving Explorer を再起動して、ツールバーの検索で適当に検索して出てきた YouTube の動画ページへ移動
      で、動画の再生ページに移動すると、画面上部にはアカウントのユーザー名は出ておらずその右に「ログイン」というリンクが表示されています。
      この「ログイン」のリンクをクリックすると、特にユーザ名やパスワードを入力せずにページがログイン状態に切り替わります。
      もし、自分がそもそも自動ログインの仕様を勘違いしているようでしたらご指摘ください。-- golgol 2009-04-04 (土) 18:48:53
  • >kai さん はてなブックマークの動画ページのことですか?埋め込みリンクが有効になっているとページによっては表示がみだれることがあります。このあたりは今後仕様を検討し直します。 -- tuck@作者 2009-04-05 (日) 14:37:34
  • >golgolさん 現象確認できました。次リリースで正常にログインできるように修正します。 -- tuck@作者 2009-04-05 (日) 14:38:16
  • mp4の変換がRC2より画質が落ちているんですけど、画質を改善してほしいです。 -- kasa 2009-04-06 (月) 08:25:58
  • >kasa さん 画質の設定に関してはRC4とRC4bでは変更していません。通常リリース版の要望はサポート掲示板にお願いしています。 -- tuck@作者 2009-04-07 (火) 11:35:55
トップ   差分 バックアップ リロード   一覧 単語検索 最終更新   ヘルプ   最終更新のRSS
Last-modified: 2014-07-03 (木) 17:34:27 (1175d)