テストリリース 1.0.0 RC 4c

2009/04/13

インストーラ版: CravingExplorer-1-0-0-RC4c.exe
ZIP版: CravingExplorer-1-0-0-RC4c.zip

<< 前のテストリリース版 テストリリース 1.0.0 RC 4b
>> 次のテストリリース版 テストリリース 1.0.0 RC 4d

【更新履歴】

  • Google Video の仕様変更により動画が保存できなくなっていた問題を修正しました。
  • Google Video の仕様変更により Google Video トップページの描画が乱れていた問題を修正しました。
  • Dailymotion の仕様変更により動画が保存できなくなっていた問題を修正しました。
  • Dailymotion の保存時に、画質が高いと思われるものを自動で選択して保存するように変更しました。
  • 特定のタイミングで動画の保存、変換が行えないことがあった不具合を修正しました。
  • YouTube へ Google アカウントでログインできなかった問題を修正しました。
  • Windows 2000 環境でアイコンの描画が崩れていた問題を修正しました。
  • Windows 2000 環境で表示設定ウィザードが文字化けしていた不具合を修正しました。
  • YouTube 組み込み検索のとき、検索文字が空だった場合に YouTube のホームページに移動するように変更しました。

【更新内容について】

  • Dailymotion のスクリプトは k38 さんの修正を参考にさせて頂きました。ありがとうございます。一番画質が良いと思われるものを自動で取得するようにしているので、H264 / FLV のどちらが保存されるかは動画によって変わります。

【コメント】

質問、不具合報告等は、下のコメントフォームか、直接このページを編集するようにお願いします。

  • Dailymotion の修正、まさか私の勝手な改造をお使いいただけるとは思っても見ませんでした。あんな拙い記述をほとんどそのままお使いいただきまして、恐縮の極みです。しかも、より高機能にしていただいて、感謝感激です。ありがとうございました。 -- k38 2009-04-13 (月) 15:48:00
  • >k38さん こちらこそとても助かりました。 -- tuck@作者 2009-04-13 (月) 20:51:18
  • Walkmanは、MP4に対応していません。AACかMP3とかWMAとかにしか、対応していません。おまけに、Walkmanに音楽を入れるソフトは、「sonic stage」です。 -- RYUYANISHIKAWA 2009-04-14 (火) 16:08:24
  • このページは、テストリリースRC4cに関するページですので、CravingExplorer全般にかかわるご意見はサポート掲示板にお願いいたします。いちおうお答えしますが、ひとくちにWalkmanといっても、音楽のみの機種もあれば、動画も再生できる機種もあります。動画が再生できる機種は、MP4に対応してます。また、Walkmanに音楽を転送するソフトは、付属のSonicStageを使うのが普通かもしれませんが、CravingExplorerはSonicStageを介さずとも、Walkmanに動画を転送できますよ(でも音楽の自動転送には未対応)。 -- k38 2009-04-14 (火) 21:39:10
  • お世話になります。特定のタイミングで変換失敗になる件、しつこく試しましたが、大丈夫のようです。他の修正点についても試しましたが、当方の環境では問題ありません。 -- k38 2009-04-17 (金) 08:17:12
  • FC2動画がDLできないんですけど・・・どうすればいいですか? -- hayahigu 2009-04-17 (金) 23:52:32
  • >hayahiguさん。それはFC2動画の仕様変更にともない、サイトスクリプトの修正が必要になっただけと思われます。サイトスクリプトの作者のDarkKnightさんに相談されては? -- k38 2009-04-18 (土) 00:04:07
  • >k38さん 検証ありがとうございます。いつも助かります。 -- tuck@作者 2009-04-18 (土) 01:59:37
  • YouTube の自動ログインの件、正常にログインできることを確認しました。対応どうもありがとうございます。 -- golgol 2009-04-18 (土) 11:56:03
  • >golgolさん ご報告ありがとうございます。 -- tuck@作者 2009-04-19 (日) 09:23:18
  • XP SP3, IE7の環境でRC4からRC4Cにアップデートするとオプションを表示するとハングアップするようになりました。user.iniの相違から、初回起動時の保存 / 変換メニューの表示設定ウィザードでチェックせずに起動すると現象が発生するようです。直接user.iniを全てチェックするように編集するとハングアップしなくなります。 -- sun 2009-04-20 (月) 07:18:25
  • sunさん、報告ありがとうございます。ハングアップとはどのような状況でしょうか。また、可能であれば、再現手順を具体的に教えていただけると助かります。 -- tuck@作者 2009-04-20 (月) 07:55:20
  • 初回起動時の保存/変換メニューをデフォルト() -- sun 2009-04-20 (月) 13:51:13
  • 一旦RC4を完全にアンインストールしRC4c(RC4bも同様)インストール後、初回起動時の保存/変換メニューをデフォルト(全てチェック無し)で起動し、オプションウィンドウを表示するとハングアップ状態(砂時計)になり強制終了以外出来なくなります(100%再現)。私の環境に依存しているとは思いますがRC4aまでは正常でした。この状態でRC4(a)を上書きインストールしても現象が発生しますので、初回起動時の保存/変換メニューがデフォルトでOFFになったせいで私の環境では現象が発生するようです(取り敢えず全てONにすると正常になります)。 -- sun 2009-04-20 (月) 14:06:05
  • sunさんご報告の件の検証中に別件を発見してしまいました。RC1以前の user.ini と convert.xml がsettingフォルダにある場合、RC4b以降の初回起動時のウィザードに、何も表示されません。試験環境は今回はXP-SP3 + IE7 です。なお、RC2以降は大丈夫でした。手順は次のとおり。
    ①RC1をインストールする
    ②setting フォルダに user.ini があれば削除しておく。
    ③template フォルダの convert.xml を setting フォルダにコピーする
    ④RC1を起動し、setting フォルダに user.ini ができたのを確認する。
    ⑤RC1を終了し、RC4c を上書きインストールする。
    ⑥RC4c を起動するとウィザードが表示されるが、中身は空っぽ。
     -- k38 2009-04-20 (月) 14:11:02
  • 変換時のテンポラリファイル名の衝突ですが、先ほどまた発生しましたので、一応ご報告しておきます。 -- k38 2009-04-21 (火) 13:25:07
  • IEだけじゃなくてFirefoxにも埋め込めたほうが得な気が・・・ -- カンチェマン 2009-04-27 (月) 20:37:42
  • ニコニコ動画に自動ログインできなくなっています。 -- kata 2009-04-28 (火) 20:17:53
  • 自動ログインはニコニコ側のログイン障害とか関係してないか? -- 2009-04-29 (水) 02:12:05
  • XPSP3でIE8.0.6001.18702ICを使っている者です。ver.1.0.0 RC 4cをインストールしたのですが -- ALFA 2009-05-06 (水) 13:42:21
  • お気に入りが「パラメータが間違っていますと」表示されて表示されません。 -- ALFA 2009-05-06 (水) 13:43:17
  • >sunさん、大変遅くなりましたが、こちらでは再現できませんでした。お手数ですが詳細な環境や再現手順など教えていただけないでしょうか。 -- tuck@作者 2009-05-07 (木) 16:11:59
  • >k38さん、ダイアログがからっぽな現象再現しました。修正します。 -- tuck@作者 2009-05-07 (木) 16:12:28
  • >k38さん、テンポラリファイルの衝突ですが、衝突しないよう_1などを付加するようにしているのですが、可能であれば状況を教えていただけると助かります。 -- tuck@作者 2009-05-07 (木) 16:13:19
  • 自動ログインはニコニコ動画サーバーの一時的な障害問題だったと認識しています。 -- tuck@作者 2009-05-07 (木) 16:14:09
  • 今のところFirefoxへの対応は予定していません。今後検討したいと思います。 -- tuck@作者 2009-05-07 (木) 16:14:42
  • >ALFAさん、お気に入りが正しく表示されない問題はいくつか報告があるのですが、こちらで再現しません。もし再現するかたで、IEのお気に入りファイルを送っていただくことが可能なかたがいらっしゃればメールをいただけると助かります。(個人情報を含むお気に入りに関しては受け取れませんのでご了承ください) -- tuck@作者 2009-05-07 (木) 16:16:16
  • テンポラリファイルの衝突ですが、前回発生したときのログは保存してあります。
    ケース①
    成功側
    Convert Action: mp4-ipod-itunes
    Command Line: -y -i "*:\Movie\download\flv\douga-A.flv" -f ipod -vcodec mpeg4 -b 1200k -mbd 2 -flags mv4+aic -trellis 2 -cmp 2 -subcmp 2 -s 320x240 -r 30000/1001 -acodec libfaac -ar 48000 -aq 500 "C:\Users\********\AppData\Roaming\CravingExplorer\temp\20090421030404993.mp4"
    
    FFmpeg version SVN-r16966, Copyright (c) 2000-2009 Fabrice Bellard, et al.
      configuration: --enable-memalign-hack --enable-postproc --enable-swscale --enable-gpl --enable-small --enable-pthreads --enable-libfaac --enable-libfaad --enable-libgsm --enable-libmp3lame --enable-libnut --enable-libvorbis --enable-libtheora --enable-libx264 --enable-libxvid --enable-avisynth --disable-decoder=aac --disable-ffserver --disable-ffplay --disable-debug --extra-ldflags=-static --extra-cflags=-mtune=generic -mno-sse2
      libavutil     49.14. 0 / 49.14. 0
      libavcodec    52.11. 0 / 52.11. 0
      libavformat   52.25. 0 / 52.25. 0
      libavdevice   52. 1. 0 / 52. 1. 0
      libswscale     0. 6. 1 /  0. 6. 1
      libpostproc   51. 2. 0 / 51. 2. 0
      built on Feb  3 2009 11:58:52, gcc: 4.3.2
    Input #0, flv, from '*:\Movie\download\flv\douga-A.flv':
      Duration: 00:24:09.94, start: 0.000000, bitrate: 294 kb/s
        Stream #0.0: Video: h264, yuv420p, 544x306, 294 kb/s, 23.98 tb(r)
        Stream #0.1: Audio: libfaad, 44100 Hz, stereo, s16
    Output #0, ipod, to 'C:\Users\********\AppData\Roaming\CravingExplorer\temp\20090421030404993.mp4':
        Stream #0.0: Video: mpeg4 (hq), yuv420p, 320x240, q=2-31, 1200 kb/s, 29.97 tb(c)
        Stream #0.1: Audio: libfaac, 48000 Hz, stereo, s16, 64 kb/s
    Stream mapping:
      Stream #0.0 -> #0.0
      Stream #0.1 -> #0.1
    [ipod @ 0x181eab0]Warning, extension is not .m4a nor .m4v Quicktime/Ipod might not play the file
    [ipod @ 0x181eab0]Warning, extension is not .m4a nor .m4v Quicktime/Ipod might not play the file
    Press [q] to stop encoding
    失敗側
    Convert Action: mp4-ipod-itunes
    Command Line: -y -i "*:\Movie\download\flv\douga-B" -f ipod -vcodec mpeg4 -b 1200k -mbd 2 -flags mv4+aic -trellis 2 -cmp 2 -subcmp 2 -s 320x240 -r 30000/1001 -acodec libfaac -ar 48000 -aq 500 "C:\Users\********\AppData\Roaming\CravingExplorer\temp\20090421030404993.mp4"
    
    FFmpeg version SVN-r16966, Copyright (c) 2000-2009 Fabrice Bellard, et al.
     configuration: --enable-memalign-hack --enable-postproc --enable-swscale --enable-gpl --enable-small --enable-pthreads --enable-libfaac --enable-libfaad --enable-libgsm --enable-libmp3lame --enable-libnut --enable-libvorbis --enable-libtheora --enable-libx264 --enable-libxvid --enable-avisynth --disable-decoder=aac --disable-ffserver --disable-ffplay --disable-debug --extra-ldflags=-static --extra-cflags=-mtune=generic -mno-sse2
      libavutil     49.14. 0 / 49.14. 0
      libavcodec    52.11. 0 / 52.11. 0
      libavformat   52.25. 0 / 52.25. 0
      libavdevice   52. 1. 0 / 52. 1. 0
      libswscale     0. 6. 1 /  0. 6. 1
      libpostproc   51. 2. 0 / 51. 2. 0
      built on Feb  3 2009 11:58:52, gcc: 4.3.2
    Input #0, flv, from '*:\Movie\download\flv\douga-B.flv':
      Duration: 00:24:09.94, start: 0.000000, bitrate: 293 kb/s
        Stream #0.0: Video: h264, yuv420p, 544x306 [PAR 1:1 DAR 16:9], 293 kb/s, 23.98 tb(r)
        Stream #0.1: Audio: libfaad, 44100 Hz, stereo, s16
    File 'C:\Users\********\AppData\Roaming\CravingExplorer\temp\20090421030404993.mp4' already exists. Overwrite ? [y/N] Not overwriting - exiting
    ケース②
    成功側
    Convert Action: mp4-ipod-itunes
    Command Line: -y -i "*:\Movie\download\flv\douga-B.flv" -f ipod -vcodec mpeg4 -b 1200k -mbd 2 -flags mv4+aic -trellis 2 -cmp 2 -subcmp 2 -s 320x240 -r 30000/1001 -acodec libfaac -ar 44100 -ab 128k "C:\Users\********\AppData\Roaming\CravingExplorer\temp\20090421042750154.mp4"
    
    FFmpeg version SVN-r16966, Copyright (c) 2000-2009 Fabrice Bellard, et al.
     configuration: --enable-memalign-hack --enable-postproc --enable-swscale --enable-gpl --enable-small --enable-pthreads --enable-libfaac --enable-libfaad --enable-libgsm --enable-libmp3lame --enable-libnut --enable-libvorbis --enable-libtheora --enable-libx264 --enable-libxvid --enable-avisynth --disable-decoder=aac --disable-ffserver --disable-ffplay --disable-debug --extra-ldflags=-static --extra-cflags=-mtune=generic -mno-sse2
      libavutil     49.14. 0 / 49.14. 0
      libavcodec    52.11. 0 / 52.11. 0
      libavformat   52.25. 0 / 52.25. 0
      libavdevice   52. 1. 0 / 52. 1. 0
      libswscale     0. 6. 1 /  0. 6. 1
      libpostproc   51. 2. 0 / 51. 2. 0
      built on Feb  3 2009 11:58:52, gcc: 4.3.2
    Input #0, flv, from '*:\Movie\download\flv\douga-B.flv':
      Duration: 00:24:09.94, start: 0.000000, bitrate: 293 kb/s
        Stream #0.0: Video: h264, yuv420p, 544x306 [PAR 1:1 DAR 16:9], 293 kb/s, 23.98 tb(r)
        Stream #0.1: Audio: libfaad, 44100 Hz, stereo, s16
    Output #0, ipod, to 'C:\Users\********\AppData\Roaming\CravingExplorer\temp\20090421042750154.mp4':
        Stream #0.0: Video: mpeg4 (hq), yuv420p, 320x240 [PAR 4:3 DAR 16:9], q=2-31, 1200 kb/s, 29.97 tb(c)
        Stream #0.1: Audio: libfaac, 44100 Hz, stereo, s16, 128 kb/s
    Stream mapping:
      Stream #0.0 -> #0.0
      Stream #0.1 -> #0.1
    [ipod @ 0x30d1ef0]Warning, extension is not .m4a nor .m4v Quicktime/Ipod might not play the file
    [ipod @ 0x30d1ef0]Warning, extension is not .m4a nor .m4v Quicktime/Ipod might not play the file
    Press [q] to stop encoding
    失敗側
    Convert Action: mp4-ipod-itunes
    Command Line: -y -i "*:\Movie\download\flv\douga-A" -f ipod -vcodec mpeg4 -b 1200k -mbd 2 -flags mv4+aic -trellis 2 -cmp 2 -subcmp 2 -s 320x240 -r 30000/1001 -acodec libfaac -ar 44100 -ab 128k "C:\Users\********\AppData\Roaming\CravingExplorer\temp\20090421042750154.mp4"
    
    FFmpeg version SVN-r16966, Copyright (c) 2000-2009 Fabrice Bellard, et al.
      configuration: --enable-memalign-hack --enable-postproc --enable-swscale --enable-gpl --enable-small --enable-pthreads --enable-libfaac --enable-libfaad --enable-libgsm --enable-libmp3lame --enable-libnut --enable-libvorbis --enable-libtheora --enable-libx264 --enable-libxvid --enable-avisynth --disable-decoder=aac --disable-ffserver --disable-ffplay --disable-debug --extra-ldflags=-static --extra-cflags=-mtune=generic -mno-sse2
      libavutil     49.14. 0 / 49.14. 0
      libavcodec    52.11. 0 / 52.11. 0
      libavformat   52.25. 0 / 52.25. 0
      libavdevice   52. 1. 0 / 52. 1. 0
      libswscale     0. 6. 1 /  0. 6. 1
      libpostproc   51. 2. 0 / 51. 2. 0
      built on Feb  3 2009 11:58:52, gcc: 4.3.2
    Input #0, flv, from '*:\Movie\download\flv\douga-A.flv':
      Duration: 00:24:09.94, start: 0.000000, bitrate: 294 kb/s
        Stream #0.0: Video: h264, yuv420p, 544x306, 294 kb/s, 23.98 tb(r)
        Stream #0.1: Audio: libfaad, 44100 Hz, stereo, s16
    File 'C:\Users\********\AppData\Roaming\CravingExplorer\temp\20090421042750154.mp4' already exists. Overwrite ? [y/N] Not overwriting - exiting
    という感じです。-- k38 2009-05-07 (木) 23:47:41
  • >k38さん ありがとうございます。ログを見ていると想定していたところと違う可能性があります。RC4dでも発生する可能性がありそうです。もう一度ソースを見直してみます。 -- tuck@作者 2009-05-08 (金) 00:06:45
  • 関係ないかもしれませんが、上記の動画の保存フォルダは、1000BASE-T接続のネットワークドライブ(Windows2000Server上のSCSI-HDD5台のハードウェアRAID5)上にあります。また、CPUはAMD PhenomX4 ですので、マルチスレッドで同じタイミングになる可能性が高いかもしれません。 -- k38 2009-05-08 (金) 00:08:19
トップ   差分 バックアップ リロード   一覧 単語検索 最終更新   ヘルプ   最終更新のRSS
Last-modified: 2014-07-03 (木) 17:34:27 (1233d)