テストリリース 1.0.0 RC 4d

2009/05/07

インストーラ版: CravingExplorer-1-0-0-RC4d.exe
ZIP版: CravingExplorer-1-0-0-RC4d.zip

<< 前のテストリリース版 テストリリース 1.0.0 RC 4c
>> 次のテストリリース版 テストリリース 1.0.0 RC 4e

【更新履歴】

  • Site Script を自動でインストールできるようにしました。仕様変更により、RC4c 以前で利用していた Site Script は利用できなくなりましたので、配布サイトにて Site Script を再度インストールしてください。
  • Site Script の管理ダイアログを追加しました。更新、削除が行えます。また、右クリックメニューより動画サイト、スクリプト作者サイトへの移動が行えます。(Craving Explorer 本体に初めから入っている Site Script は削除できません。)尚、サーバー負荷軽減のため、Site Script の更新チェックは、一起動につき一回しか行えません。
  • ニコニコ動画の仕様変更により、ニコニコムービーメーカで作成されたファイルの一部が保存できなくなっていた問題を修正しました。
  • 起動時のダイアログが空の状態で表示されることがあった不具合を修正しました。
  • Craving Explorer オプション→YouTube→高画質で動画を保存するをデフォルトで ON にするようにしました。
  • 動画の保存時に、特定のタイミングで動画の変換に失敗することがあった不具合を修正しました。

【更新内容について】

  • Site Script のインストール方法がわからないという質問を多く頂いていましたので、インストールを自動で行えるように拡張しました。それに伴って Site Script の仕様を変更しました。Darkknight さんには事前に仕様変更をお伝えしていましたので、Darkknight Lab のほうも更新していただけると思います。詳細な仕様は後日、このページかヘルプページにアップします。
  • RC4c をインストールした際に、Craving Explorer のオプション画面がフリーズするという報告をいくつか受けています。保存/変換メニューのオプションを追加したことによって問題が発生していると考えていますが、こちらで再現しません。再現されるかたは、できる限り詳細な報告を頂けると助かります。
  • お気に入りが正しく表示されないという報告を受けていますが、こちらで再現しません。再現されるかたは、できる限り詳細な報告を頂けると助かります。問題が発生する IE のお気に入りをメールで送って頂けると再現できるかもしれませんので、もしお気に入りの内容を作者までお送り頂けるかたがいらっしゃれば、メールにてご連絡頂ければ助かります。
  • RC4c で k38 さんに指摘頂いていた、動画保存時にテンポラリファイルが衝突してしまう件ですが、衝突する可能性のある部分を再度衝突しないように調整しましたので、ご確認いただけると助かります。
  • Site Script のインストール、アップデートのあたりのエラーチェックがまだ抜けがありそうな気がしていますので、もしおかしな動作を発見した場合はご報告いただけると助かります。

【コメント】

質問、不具合報告等は、下のコメントフォームか、直接このページを編集するようにお願いします。

  • 早速使わせていただいています。で、先ほどDarkKnightさんのサイトから、サイトスクリプトをガシガシと一気に全取得かけたのですが、その際、通信エラーなのか、サーバの応答に問題があるのか、それともCravingExplorer側の処理に問題があるのか、まったく不明ですが、しばらく応答がなくなる状況に、何回か陥りました。うち1回は完全に応答がなくなり、Vista側で停止の履歴が表示されました。とまるタイミングは、
    ①サイト上の「スクリプトをインストール」をクリックした直後
    ②インストールダイアログでインストール(だったでしょうか?)をクリックし、スクリプトのダウンロードが完了して、AppDataの方のsite-scriptフォルダに保存された後
    ③インストールが完了したダイアログでOKした後
    以上の、どのタイミングでも発生しましたが、①は通信の具合の可能性が高そうですが、②と③は・・・?なお、完全停止したのは③です。とりあえず、Vista Bussines SP1 x64 の環境だけしか確認してないので、別環境でも試してみます。 -- k38 2009-05-07 (木) 23:39:30
  • >k38さん 早速のご報告感謝いたします。通信に時間がかかっているばあい、プログレスバーなどがでるような変更を入れないとだめですね。まずは、どこで時間がかかっているのか、から調査していきます。 -- tuck@作者 2009-05-07 (木) 23:55:38
  • インストール形式でダウンロードしてインストールしようとしたのですが、 -- 伝説の名無し 2009-05-08 (金) 19:30:26
  • ↑間違えましたww 続きですが、 既存ファイルを置き換え中にエラーが発生しました。DeleteFile エラー: コード5.アクセスが拒否されました。と出ます。どうしたらよいでしょうか? -- 伝説の名無し 2009-05-08 (金) 19:35:30
  • ↑間違えましたww 続きですが、 既存ファイルを置き換え中にエラーが発生しました。DeleteFile エラー: コード5.アクセスが拒否されました。と出ます。どうしたらよいでしょうか? -- 伝説の名無し 2009-05-08 (金) 19:36:41
  • ↑間違えましたww 続きですが、 既存ファイルを置き換え中にエラーが発生しました。DeleteFile エラー: コード5.アクセスが拒否されました。と出ます。どうしたらよいでしょうか? -- 伝説の名無し 2009-05-08 (金) 19:37:00
  • 更新したら↑が変になりました・・・。すいません・・・。 -- 伝説の名無し 2009-05-08 (金) 19:38:29
  • 前回同様、IEの8.0.6001.18702ICで「パラメータが間違っています」となります。試しにお気に入りを全て削除したのですが同じようなエラーが発生しています。 -- ALFA 2009-05-08 (金) 21:26:54
  • 「既存ファイルを置き換え中・・・」 、これ実はわたしも出ました。でも、その時はたまたまかと思ってました。これはちょっと検証する必要がありますね。 なお、この場合、パソコン自体を再起動すれば問題ありません。 ひょっとしたら、CravingExplorerを実行した後にアップデートするとなるのかも。 あとで試してみます。 -- k38 2009-05-08 (金) 22:07:27
  • テンポラリファイル名の衝突ですが、ご懸念のとおり、RC4dでも発生しました。それもテスト1発目で。私の環境は、このエラーが出やすいのかも。詳細は次のとおり。
    テスト環境 Vista Business x64 SP1 + IE8 + RC4d。CPU AMD PhenomX4 9850、RAM 6GB。動画保存フォルダはネットワーク上(ローカルのSATAよりかなり高速)。
    成功側
    Convert Action: mp4-iphone
    Command Line: -y -i "*:\Movie\download\flv\*****4.flv" -f ipod -vcodec mpeg4 -b 1200k -mbd 2 -flags mv4+aic -trellis 2 -cmp 2 -subcmp 2 -s 480x360 -r 30000/1001 -acodec libfaac -ar 48000 -aq 500 "C:\Users\********\AppData\Roaming\CravingExplorer\temp\20090508131329107.mp4"
    
    FFmpeg version SVN-r16966, Copyright (c) 2000-2009 Fabrice Bellard, et al.
      configuration: --enable-memalign-hack --enable-postproc --enable-swscale --enable-gpl --enable-small --enable-pthreads --enable-libfaac --enable-libfaad --enable-libgsm --enable-libmp3lame --enable-libnut --enable-libvorbis --enable-libtheora --enable-libx264 --enable-libxvid --enable-avisynth --disable-decoder=aac --disable-ffserver --disable-ffplay --disable-debug --extra-ldflags=-static --extra-cflags=-mtune=generic -mno-sse2
      libavutil     49.14. 0 / 49.14. 0
      libavcodec    52.11. 0 / 52.11. 0
      libavformat   52.25. 0 / 52.25. 0
      libavdevice   52. 1. 0 / 52. 1. 0
      libswscale     0. 6. 1 /  0. 6. 1
      libpostproc   51. 2. 0 / 51. 2. 0
      built on Feb  3 2009 11:58:52, gcc: 4.3.2
    
    Seems stream 0 codec frame rate differs from container frame rate: 1000.00 (1000/1) -> 15.00 (15/1)
    Input #0, flv, from '*:\Movie\download\flv\*****4.flv':
      Duration: 00:23:01.98, start: 0.000000, bitrate: 256 kb/s
        Stream #0.0: Video: flv, yuv420p, 384x216, 208 kb/s, 15.00 tb(r)
        Stream #0.1: Audio: mp3, 22050 Hz, stereo, s16, 48 kb/s
    Output #0, ipod, to 'C:\Users\********\AppData\Roaming\CravingExplorer\temp\20090508131329107.mp4':
        Stream #0.0: Video: mpeg4 (hq), yuv420p, 480x360, q=2-31, 1200 kb/s, 29.97 tb(c)
        Stream #0.1: Audio: libfaac, 48000 Hz, stereo, s16, 64 kb/s
    Stream mapping:
      Stream #0.0 -> #0.0
      Stream #0.1 -> #0.1
    [ipod @ 0x3ea50]Warning, extension is not .m4a nor .m4v Quicktime/Ipod might not play the file
    [ipod @ 0x3ea50]Warning, extension is not .m4a nor .m4v Quicktime/Ipod might not play the file
    Press [q] to stop encoding
    失敗側
    Convert Action: mp4-iphone
    Command Line: -y -i "*:\Movie\download\flv\*****3.flv" -f ipod -vcodec mpeg4 -b 1200k -mbd 2 -flags mv4+aic -trellis 2 -cmp 2 -subcmp 2 -s 480x360 -r 30000/1001 -acodec libfaac -ar 48000 -aq 500 "C:\Users\********\AppData\Roaming\CravingExplorer\temp\20090508131329107.mp4"
    
    FFmpeg version SVN-r16966, Copyright (c) 2000-2009 Fabrice Bellard, et al.
      configuration: --enable-memalign-hack --enable-postproc --enable-swscale --enable-gpl --enable-small --enable-pthreads --enable-libfaac --enable-libfaad --enable-libgsm --enable-libmp3lame --enable-libnut --enable-libvorbis --enable-libtheora --enable-libx264 --enable-libxvid --enable-avisynth --disable-decoder=aac --disable-ffserver --disable-ffplay --disable-debug --extra-ldflags=-static --extra-cflags=-mtune=generic -mno-sse2
      libavutil     49.14. 0 / 49.14. 0
      libavcodec    52.11. 0 / 52.11. 0
      libavformat   52.25. 0 / 52.25. 0
      libavdevice   52. 1. 0 / 52. 1. 0
      libswscale     0. 6. 1 /  0. 6. 1
      libpostproc   51. 2. 0 / 51. 2. 0
      built on Feb  3 2009 11:58:52, gcc: 4.3.2
    
    Seems stream 0 codec frame rate differs from container frame rate: 1000.00 (1000/1) -> 15.00 (15/1)
    Input #0, flv, from '*:\Movie\download\flv\*****3.flv':
      Duration: 00:20:48.00, start: 0.000000, bitrate: 234 kb/s
        Stream #0.0: Video: flv, yuv420p, 384x216, 194 kb/s, 15.00 tb(r)
        Stream #0.1: Audio: mp3, 22050 Hz, stereo, s16, 40 kb/s
    File 'C:\Users\********\AppData\Roaming\CravingExplorer\temp\20090508131329107.mp4' already exists. Overwrite ? [y/N] Not overwriting - exiting
    こんな感じです。-- k38 2009-05-08 (金) 22:16:14
  • 既存ファイルの置き換え中に... の問題ですが、もしかすると Craving Explorer が終了しても、なにかしらのファイルをロックしているのかもしれません。Craving Explorer のプロセスが残っていれば、インストーラにブロックされてインストールできないはずですので、ffmpeg のプロセスが残っている可能性が高いかも?もし現象が確認できれば再現手順など教えていただけるとたすかります。 -- tuck@作者 2009-05-09 (土) 09:29:54
  • ALFAさん こちらIE8.0.6001.18702で確認していますが、現象が発生しません。そのメッセージが出るタイミングを教えていただけますか?お気に入りを削除してもそのエラーがでるというのが難しいですね・・・。ちなみにユーザーは管理者権限をもっていますか? -- tuck@作者 2009-05-09 (土) 09:32:49
  • >k38さん ありがとうございます、こちらでは発生しないようですので、次回テストリリースでも対策を入れてみますので、再度検証いただけると助かります。なんとなく、問題の発生している部分がわかった気はしているのですが…。 -- tuck@作者 2009-05-09 (土) 09:35:24
  • 既存ファイルを置き換え中・・・の問題ですが、どのバージョンからどのバージョンにアップデートしたときか、もし記憶にあれば教えていただけると助かります。 -- tuck@作者 2009-05-09 (土) 09:44:25
  • 僕は1.0.0 RC4から1.0.0 RC 4dにアップデートしようとしたときです。 -- 伝説の名無し 2009-05-09 (土) 10:24:34
  • >伝説の名無しさん ありがとうございます。そのとき Craving Explorer が起動していた、ということはないですか? -- tuck@作者 2009-05-09 (土) 12:18:15
  • 既存ファイルの置き換え中に・・・の問題のその後ですが、残念ながら再現できません。とりあえず、発生した状況は、RC4c→RC4dの上書きアップデートで、RC4cでRC4dをダウンロードし、CravingExplorerを終了させた後、アップデートインストールしました。なお、このパソコンは前述のVista Business x64 SP1の環境です。実はこの環境、基本的に24時間運用のため、なんらかの不具合が積もり積もっていた可能性はあります。参考になるような情報がなく、申し訳ございません。 -- k38 2009-05-09 (土) 22:58:38
  • >k38さん 報告ありがとうございます。こちらでも再現できませんでした。Craving Explorer が強制終了してしまった後になどなら、可能性はあるとおもうのですが、強制終了後の動作は防ぎようがないと思います。今後、多数報告が上がるようであれば再度詳細に調査してみます。 -- tuck@作者 2009-05-10 (日) 00:12:27
  • オプションウィンドウのハングアップの件ですが、一応RC4dでも確認しましたが同様でした。Virtual PC環境で発生する条件を調査していましたので遅くなりましたが、大体の発生条件が分かりました。プログラミング上の話で長くなりますので、詳細は直接メールしてかまいませんか? -- sun 2009-05-10 (日) 09:20:25
  • sunさん、報告ありがとうございます。詳細な調査ありがとうございます。メールいただけますと幸いです。 -- tuck@作者 2009-05-10 (日) 13:15:20
  • 遅れましたが、確か、Craving Explorerを終了した後でした。 -- 伝説の名無し 2009-05-10 (日) 14:19:01
  • 遅れてすみません。ユーザーは管理者権限を持っているのですがもしかしたら別のブラウザが入っているのでそれと競合しているのかなと思います。 -- ALFA 2009-05-11 (月) 23:25:41
  • ブラウザはIEと互換のあるLunascape5というやつを使っています。たびたびブラウザ上でieframe.dllが原因でフリーズすることがあるので・・・ -- ALFA 2009-05-11 (月) 23:31:21
  • >伝説の名無しさん ご報告ありがとうございます。今のところ原因は特定できていないのですが、その時にffmpegが動作していたのかも?と思っています。発生する確率は低いのではないかと想像していますので、今のところ保留にしたいと思っています。もし、今後もアップデート時に頻繁に発生する場合は再度ご報告いただければ助かります。 -- tuck@作者 2009-05-12 (火) 06:09:37
  • >ALFAさん ご報告ありがとうございます。Lunascapeから直接IEのお気に入りの操作(登録、更新、削除など)を行っていますか?私の知る限りでは、Lunascapeでは独自お気に入りを利用していたと思いますが、IEのお気に入りを直接するような機能(プラグイン??)があるようなので、そちらは利用されていますか? -- tuck@作者 2009-05-12 (火) 06:12:36
トップ   差分 バックアップ リロード   一覧 単語検索 最終更新   ヘルプ   最終更新のRSS
Last-modified: 2014-07-03 (木) 17:34:27 (1233d)